Historique | More Details | Mi Band Notify V2

Torrents.ovh

Deadpool 2 2018 Super Duper Cut UNRATED 1080p AMZN WEBRip DDP5 1 x264-ION10

×

No Good Deed



IMDB Rating: 8.0/10 from 192252 users Updated : 2018-08-07
Metacritic: 66
RottenTomatoes: fresh! 83% audience liked it! 86%
Genres: Action , Adventure , Comedy , Sci-Fi
Actors: Ryan Reynolds , Josh Brolin , Morena Baccarin , Julian Dennison , Zazie Beetz , T.J. Miller , Leslie Uggams , Karan Soni , Brianna Hildebrand ,
Jack Kesy , Eddie Marsan , Shioli Kutsuna , Stefan Kapicic , Randal Reeder , Nikolai Witschl
Director: David Leitch
IMDB Runtime: 119
Year: 2018

Plot: Foul-mouthed mutant mercenary Wade Wilson (AKA. Deadpool)| brings together a team of fellow mutant rogues to protect a young boy with supernatural abilities from the brutal| time-traveling cyborg| Cable.

Rotten Plot:Though it threatens to buckle under the weight of its meta gags, Deadpool 2 is a gory, gleeful lampoon of the superhero genre buoyed by Ryan Reynolds' undeniable charm.

Video
ID : 1
Format : AVC
Format/Info : Advanced Video Codec
Format profile : [email protected]
Format settings : CABAC / 4 Ref Frames
Format settings, CABAC : Yes
Format settings, ReFrames : 4 frames
Codec ID : V_MPEG4/ISO/AVC
Duration : 2 h 14 min
Bit rate mode : Constant
Bit rate : 10 000 kb/s
Width : 1 920 pixels
Height : 1 080 pixels
Display aspect ratio : 16:9
Frame rate mode : Constant
Frame rate : 23.976 (24000/1001) FPS
Color space : YUV
Chroma subsampling : 4:2:0
Bit depth : 8 bits
Scan type : Progressive
Bits/(Pixel*Frame) : 0.201
Stream size : 9.28 GiB (97%)
Title : Deadpool.2.2018.Super.Duper.Cut.UNRATED.1080p.AMZN.WEBRip.DDP5.1.x264-ION10
Language : English
Default : Yes
Forced : No
Color range : Limited
Color primaries : BT.709
Transfer characteristics : BT.709
Matrix coefficients : BT.709

Audio
ID : 2
Format : E-AC-3
Format/Info : Enhanced Audio Coding 3
Codec ID : A_EAC3
Duration : 2 h 14 min
Bit rate mode : Constant
Bit rate : 256 kb/s
Channel(s) : 6 channels
Channel positions : Front: L C R, Side: L R, LFE
Sampling rate : 48.0 kHz
Frame rate : 187.500 FPS (256 SPF)
Compression mode : Lossy
Stream size : 245 MiB (3%)
Title : Deadpool.2.2018.Super.Duper.Cut.UNRATED.1080p.AMZN.WEBRip.DDP5.1.x264-ION10
Language : English
Service kind : Complete Main
Default : Yes
Forced : No

Text
ID : 3
Format : UTF-8
Codec ID : S_TEXT/UTF8
Codec ID/Info : UTF-8 Plain Text
Duration : 2 h 13 min
Bit rate : 69 b/s
Count of elements : 2427
Stream size : 67.5 KiB (0%)
Language : English
Default : No
Forced : No



Files:

Deadpool.2.2018.Super.Duper.Cut.UNRATED.1080p.AMZN.WEBRip.DDP5.1.x264-ION10